[REUP] Game of Thrones 2011 Season 6 S06 (1080p Bluray x265 HEVC 10bit AAC 7.1 Tigole) [UTR]

seeders: 18
leechers: 7
updated:
Added by UTRplus in TV > HEVC/x265

Download Fast Safe Anonymous
movies, software, shows...

Files

Game of Thrones 2011 Season 6 S06 (1080p Bluray x265 HEVC 10bit AAC 7.1 Tigole) Featurettes
  • 18 Hours at the Paint Hall.mkv (332.4 MB)
  • Deleted Scenes.mkv (128.5 MB)
  • Histories & Lore - Brotherhood Without Banners.mkv (24.8 MB)
  • Histories & Lore - Children of the Forest vs. the First Men.mkv (32.9 MB)
  • Histories & Lore - Great Sept of Baelor.mkv (51.9 MB)
  • Histories & Lore - House Dayne.mkv (23.9 MB)
  • Histories & Lore - House Tarly.mkv (53.8 MB)
  • Histories & Lore - Knights of the Vale.mkv (66.3 MB)
  • Histories & Lore - Northern Allegiances to House Stark.mkv (58.4 MB)
  • Histories & Lore - Oldtown.mkv (66.3 MB)
  • Histories & Lore - Riverrun.mkv (34.0 MB)
  • Histories & Lore - Robert's Rebellion.mkv (35.3 MB)
  • Histories & Lore - The Dothraki.mkv (56.1 MB)
  • Histories & Lore - The Great Tourney at Harrenhal.mkv (38.7 MB)
  • Histories & Lore - The Kingsmoot.mkv (43.8 MB)
  • Histories & Lore - The Little Birds.mkv (37.7 MB)
  • Histories & Lore - The Old Way.mkv (42.4 MB)
  • Histories & Lore - The Sunset Sea.mkv (48.0 MB)
  • Histories & Lore - Vaes Dothrak.mkv (46.7 MB)
  • Histories & Lore - War of the Ninepenny Kings.mkv (28.7 MB)
  • Recreating the Dothraki World.mkv (239.6 MB)
  • The Battle of the Bastards - An In-Depth Look.mkv (354.3 MB)
  • Game of Thrones S06E01 The Red Woman (1080p x265 10bit Tigole).mkv (1.1 GB)
  • Game of Thrones S06E02 Home (1080p x265 10bit Tigole).mkv (1.1 GB)
  • Game of Thrones S06E03 Oathbreaker (1080p x265 10bit Tigole).mkv (1.1 GB)
  • Game of Thrones S06E04 Book of the Stranger (1080p x265 10bit Tigole).mkv (1.2 GB)
  • Game of Thrones S06E05 The Door (1080p x265 10bit Tigole).mkv (1.2 GB)
  • Game of Thrones S06E06 Blood of My Blood (1080p x265 10bit Tigole).mkv (1.1 GB)
  • Game of Thrones S06E07 The Broken Man (1080p x265 10bit Tigole).mkv (1.1 GB)
  • Game of Thrones S06E08 No One (1080p x265 10bit Tigole).mkv (1.2 GB)
  • Game of Thrones S06E09 Battle of the Bastards (1080p x265 10bit Tigole).mkv (1.3 GB)
  • Game of Thrones S06E10 The Winds of Winter (1080p x265 10bit Tigole).mkv (1.5 GB)

Description



Game of Thrones 2011 Season 6 in 1080p, encoded with x265 in HEVC and AAC 7.1 English, with subtitles!
Encoded using the time consuming 2 pass, 10 bit color at 2500 kbps, from a Blu-ray source, for the highest quality possible.



Media Information

Code:

General
Format : Matroska
Format version : Version 4 / Version 2
File size : 1.06 GiB
Duration : 50 min 4 s
Overall bit rate : 3 027 kb/s
Encoded date : UTC 2016-11-05 22:09:54
Writing application : mkvmerge v9.4.0 ('Knurl') 64bit
Writing library : libebml v1.3.4 + libmatroska v1.4.5

Video
ID : 1
Format : HEVC
Format/Info : High Efficiency Video Coding
Format profile : Main [email protected]@Main
Codec ID : V_MPEGH/ISO/HEVC
Duration : 50 min 4 s
Bit rate : 2 518 kb/s
Width : 1 920 pixels
Height : 1 080 pixels
Display aspect ratio : 16:9
Frame rate mode : Constant
Frame rate : 23.976 (24000/1001) FPS
Color space : YUV
Chroma subsampling : 4:2:0
Bit depth : 10 bits
Bits/(Pixel*Frame) : 0.051
Stream size : 902 MiB (83%)
Writing library : x265 2.1+36-d216cb9b3b47:[Windows][GCC 6.2.0][64 bit] 10bit
Encoding settings : wpp / ctu=64 / min-cu-size=8 / max-tu-size=32 / tu-intra-depth=1 / tu-inter-depth=1 / me=1 / subme=2 / merange=57 / no-rect / no-amp / max-merge=2 / temporal-mvp / no-early-skip / rskip / rdpenalty=0 / no-tskip / no-tskip-fast / strong-intra-smoothing / no-lossless / no-cu-lossless / no-constrained-intra / no-fast-intra / open-gop / no-temporal-layers / interlace=0 / keyint=250 / min-keyint=23 / scenecut=40 / bias-for-scenecut=0.05 / rc-lookahead=20 / lookahead-slices=6 / bframes=4 / bframe-bias=0 / b-adapt=2 / ref=3 / limit-refs=3 / no-limit-modes / weightp / no-weightb / aq-mode=2 / qg-size=32 / aq-strength=1.00 / cbqpoffs=0 / crqpoffs=0 / rd=3 / psy-rd=2.00 / rdoq-level=0 / psy-rdoq=0.00 / log2-max-poc-lsb=8 / limit-tu=0 / no-rd-refine / signhide / deblock=0:0 / sao / no-sao-non-deblock / b-pyramid / cutree / no-intra-refresh / rc=2 / pass / bitrate=2516 / qcomp=0.60 / qpmin=0 / qpmax=69 / qpstep=4 / cplxblur=20.0 / qblur=0.5 / ipratio=1.40 / pbratio=1.30
Default : Yes
Forced : No

Audio #1
ID : 2
Format : AAC
Format/Info : Advanced Audio Codec
Format profile : LC
Codec ID : A_AAC
Duration : 50 min 4 s
Bit rate : 395 kb/s
Channel(s) : 8 channels
Channel positions : Front: L C R, Side: 4, LFE
Sampling rate : 48.0 kHz
Frame rate : 46.875 FPS (1024 spf)
Compression mode : Lossy
Delay relative to video : 20 ms
Stream size : 141 MiB (13%)
Language : English
Default : Yes
Forced : No

Audio #2
ID : 3
Format : AAC
Format/Info : Advanced Audio Codec
Format profile : HE-AAC / LC
Codec ID : A_AAC
Duration : 50 min 4 s
Bit rate : 66.2 kb/s
Channel(s) : 2 channels
Channel positions : Front: L R
Sampling rate : 48.0 kHz / 24.0 kHz
Frame rate : 23.438 FPS (1024 spf)
Compression mode : Lossy
Delay relative to video : 40 ms
Stream size : 23.6 MiB (2%)
Title : Commentary
Language : English
Default : No
Forced : No

Text #1
ID : 4
Format : VobSub
Muxing mode : zlib
Codec ID : S_VOBSUB
Codec ID/Info : Picture based subtitle format used on DVDs
Duration : 43 min 58 s
Bit rate : 5 826 b/s
Count of elements : 544
Stream size : 1.83 MiB (0%)
Language : English
Default : No
Forced : No

Text #2
ID : 5
Format : VobSub
Muxing mode : zlib
Codec ID : S_VOBSUB
Codec ID/Info : Picture based subtitle format used on DVDs
Duration : 11 min 31 s
Bit rate : 3 576 b/s
Count of elements : 83
Stream size : 302 KiB (0%)
Language : English
Default : No
Forced : Yes

Text #3
ID : 6
Format : VobSub
Muxing mode : zlib
Codec ID : S_VOBSUB
Codec ID/Info : Picture based subtitle format used on DVDs
Duration : 46 min 28 s
Bit rate : 4 171 b/s
Count of elements : 476
Stream size : 1.39 MiB (0%)
Language : French
Default : No
Forced : No

Text #4
ID : 7
Format : VobSub
Muxing mode : zlib
Codec ID : S_VOBSUB
Codec ID/Info : Picture based subtitle format used on DVDs
Duration : 42 min 27 s
Bit rate : 5 202 b/s
Count of elements : 453
Stream size : 1.58 MiB (0%)
Language : Spanish
Default : No
Forced : No

Text #5
ID : 8
Format : VobSub
Muxing mode : zlib
Codec ID : S_VOBSUB
Codec ID/Info : Picture based subtitle format used on DVDs
Duration : 42 min 27 s
Bit rate : 5 431 b/s
Count of elements : 416
Stream size : 1.65 MiB (0%)
Language : German
Default : No
Forced : No

Text #6
ID : 9
Format : VobSub
Muxing mode : zlib
Codec ID : S_VOBSUB
Codec ID/Info : Picture based subtitle format used on DVDs
Duration : 37 min 31 s
Bit rate : 1 221 b/s
Count of elements : 76
Stream size : 336 KiB (0%)
Title : Forced
Language : German
Default : No
Forced : No

Text #7
ID : 10
Format : VobSub
Muxing mode : zlib
Codec ID : S_VOBSUB
Codec ID/Info : Picture based subtitle format used on DVDs
Duration : 42 min 27 s
Bit rate : 5 182 b/s
Count of elements : 448
Stream size : 1.57 MiB (0%)
Language : Portuguese
Default : No
Forced : No

Text #8
ID : 11
Format : VobSub
Muxing mode : zlib
Codec ID : S_VOBSUB
Codec ID/Info : Picture based subtitle format used on DVDs
Duration : 42 min 27 s
Bit rate : 5 198 b/s
Count of elements : 455
Stream size : 1.58 MiB (0%)
Language : Dutch
Default : No
Forced : No

Text #9
ID : 12
Format : VobSub
Muxing mode : zlib
Codec ID : S_VOBSUB
Codec ID/Info : Picture based subtitle format used on DVDs
Duration : 42 min 27 s
Bit rate : 5 115 b/s
Count of elements : 454
Stream size : 1.55 MiB (0%)
Language : Danish
Default : No
Forced : No

Text #10
ID : 13
Format : VobSub
Muxing mode : zlib
Codec ID : S_VOBSUB
Codec ID/Info : Picture based subtitle format used on DVDs
Duration : 42 min 27 s
Bit rate : 4 636 b/s
Count of elements : 455
Stream size : 1.41 MiB (0%)
Language : Finnish
Default : No
Forced : No

Text #11
ID : 14
Format : VobSub
Muxing mode : zlib
Codec ID : S_VOBSUB
Codec ID/Info : Picture based subtitle format used on DVDs
Duration : 42 min 27 s
Bit rate : 4 901 b/s
Count of elements : 455
Stream size : 1.49 MiB (0%)
Language : Norwegian Bokmal
Default : No
Forced : No

Text #12
ID : 15
Format : VobSub
Muxing mode : zlib
Codec ID : S_VOBSUB
Codec ID/Info : Picture based subtitle format used on DVDs
Duration : 42 min 27 s
Bit rate : 4 990 b/s
Count of elements : 455
Stream size : 1.52 MiB (0%)
Language : Swedish
Default : No
Forced : No

Menu
00:00:00.000 : en:Chapter 01
00:01:55.740 : en:Chapter 02
00:09:34.615 : en:Chapter 03
00:19:05.602 : en:Chapter 04
00:29:02.365 : en:Chapter 05
00:35:32.463 : en:Chapter 06
00:41:22.062 : en:Chapter 07
00:48:42.169 : en:Chapter 08
00:50:01.623 : en:Chapter 09



Source Information

Code:

Complete name : Game of Thrones S06E01 The Red Woman.mkv
File size : 10.9 GiB
Duration : 50mn 4s
Overall bit rate mode : Variable
Overall bit rate : 31.0 Mbps

Complete name : Game of Thrones S06E02 Home.mkv
File size : 12.0 GiB
Duration : 53mn 42s
Overall bit rate mode : Variable
Overall bit rate : 32.1 Mbps

Complete name : Game of Thrones S06E03 Oathbreaker.mkv
File size : 9.62 GiB
Duration : 52mn 12s
Overall bit rate mode : Variable
Overall bit rate : 26.4 Mbps

Complete name : Game of Thrones S06E04 Book of the Stranger.mkv
File size : 10.8 GiB
Duration : 58mn 41s
Overall bit rate mode : Variable
Overall bit rate : 26.4 Mbps

Complete name : Game of Thrones S06E05 The Door.mkv
File size : 10.8 GiB
Duration : 56mn 48s
Overall bit rate mode : Variable
Overall bit rate : 27.3 Mbps

Complete name : Game of Thrones S06E06 Blood of My Blood.mkv
File size : 9.60 GiB
Duration : 51mn 27s
Overall bit rate mode : Variable
Overall bit rate : 26.7 Mbps

Complete name : Game of Thrones S06E07 The Broken Man.mkv
File size : 9.38 GiB
Duration : 50mn 20s
Overall bit rate mode : Variable
Overall bit rate : 26.7 Mbps

Complete name : Game of Thrones S06E08 No One.mkv
File size : 10.9 GiB
Duration : 58mn 20s
Overall bit rate mode : Variable
Overall bit rate : 26.6 Mbps

Complete name : Game of Thrones S06E09 Battle of the Bastards.mkv
File size : 10.6 GiB
Duration : 59mn 17s
Overall bit rate mode : Variable
Overall bit rate : 25.7 Mbps

Complete name : Game of Thrones S06E10 The Winds of Winter.mkv
File size : 12.0 GiB
Duration : 1h 8mn
Overall bit rate mode : Variable
Overall bit rate : 25.3 Mbps




Download torrent
13.7 GB
seeders:18
leechers:7
[REUP] Game of Thrones 2011 Season 6 S06 (1080p Bluray x265 HEVC 10bit AAC 7.1 Tigole) [UTR]


Trackers

tracker name
udp://tracker.torrent.eu.org:451/announce
udp://tracker.opentrackr.org:1337/announce
udp://tracker.coppersurfer.tk:6969/announce
µTorrent compatible trackers list

Download torrent
13.7 GB
seeders:18
leechers:7
[REUP] Game of Thrones 2011 Season 6 S06 (1080p Bluray x265 HEVC 10bit AAC 7.1 Tigole) [UTR]


Torrent hash: 2D1771F2A4CEE66BEC96D152025FF2889890718B
Sitemap